Ray Donovan S04E01 HDTV x264-BATV[msu]

seeders: 120
leechers: 5
updated:
Added by MdSaffatUllah5551 in TV
Torrent verified. Downloaded 3,874 times.

DownloadFast Safe Anonymous
movies, software, shows...
  • View all Ray Donovan episodes
  • Episode title: Girl With Guitar
  • Episode: S04E01
  • Air date: 26 June 2016
  • IMDb link: 2249007
  • TVmaze link: Ray Donovan
  • Original run: 30 June 2013 — Present
  • Summary:

    Ray Donovan, a professional "fixer" for the rich and famous in LA, can make anyone's problems disappear except those created by his own family.

    Written by Thhaque414.93K
Available in versions: 1080p720p480pHDTVWEBRipx264x265
Ray Donovan S04E01 HDTV x264-BATV[msu] (Size: 121.98 MB)
  Ray Donovan S04E01 HDTV x264-BATV[msu].mp4 121.98 MB

Description

Please seed the torrent


Screenshots:

imageimageimageimageimageimage


General
Format : MPEG-4
Format profile : Base Media
Codec ID : isom (isom/iso2/avc1/mp41)
File size : 122 MiB
Duration : 58mn 7s
Overall bit rate : 293 Kbps
Writing application : Lavf55.25.100

Video
ID : 1
Format : AVC
Format/Info : Advanced Video Codec
Format profile : [email protected]
Format settings, CABAC : Yes
Format settings, ReFrames : 4 frames
Codec ID : avc1
Codec ID/Info : Advanced Video Coding
Duration : 58mn 7s
Bit rate : 191 Kbps
Width : 576 pixels
Height : 324 pixels
Display aspect ratio : 16:9
Original display aspect ratio : 16:9
Frame rate mode : Constant
Frame rate : 23.976 (24000/1001) fps
Color space : YUV
Chroma subsampling : 4:2:0
Bit depth : 8 bits
Scan type : Progressive
Bits/(Pixel*Frame) : 0.043
Stream size : 79.5 MiB (65%)
Writing library : x264 core 140 r2 1ca7bb9
Encoding settings : cabac=1 / ref=1 / deblock=1:0:0 / analyse=0x3:0x113 / me=hex / subme=2 / psy=1 / psy_rd=1.00:0.00 / mixed_ref=0 / me_range=16 / chroma_me=1 / trellis=0 / 8x8dct=1 / cqm=0 / deadzone=21,11 / fast_pskip=1 / chroma_qp_offset=0 / threads=36 / lookahead_threads=2 / sliced_threads=0 / nr=0 / decimate=1 / interlaced=0 / bluray_compat=0 / constrained_intra=0 / bframes=3 / b_pyramid=2 / b_adapt=1 / b_bias=0 / direct=1 / weightb=1 / open_gop=0 / weightp=1 / keyint=50 / keyint_min=5 / scenecut=40 / intra_refresh=0 / rc_lookahead=10 / rc=crf / mbtree=1 / crf=25.0 / qcomp=0.60 / qpmin=0 / qpmax=69 / qpstep=4 / ip_ratio=1.40 / aq=1:1.00

Audio
ID : 2
Format : AAC
Format/Info : Advanced Audio Codec
Format profile : LC
Codec ID : 40
Duration : 58mn 7s
Duration_LastFrame : -12ms
Bit rate mode : Constant
Bit rate : 96.0 Kbps
Channel(s) : 2 channels
Channel positions : Front: L R
Sampling rate : 44.1 KHz
Frame rate : 43.066 fps (1024 spf)
Compression mode : Lossy
Stream size : 39.9 MiB (33%)
Default : Yes
Alternate group : 1

Related Torrents

torrent name size files age seed leech

Sharing Widget


Download torrent
121.98 MB
seeders:130
leechers:8
Ray Donovan S04E01 HDTV x264-BATV[msu]



To share this torrent use the code below and insert it into comments, status messages, forum posts or your signature.

Torrent: Ray Donovan S04E01 HDTV x264-BATV[msu]

Trackers

tracker name
udp://tracker.openbittorrent.com:80/announce
udp://tracker.coppersurfer.tk:6969/announce
udp://p4p.arenabg.com:1337/announce
udp://tracker.opentrackr.org:1337/announce
µTorrent compatible trackers list

Locations

name
KickassTorrents
Torrent hash: D0967B6EB747487EB7747339679133BB829CB599

All Comments

audio
9/10
video
8/10
please, leave only comments related to that torrent
Sign In

audio: 9video: 8
Thank You GreaT upload Sharing is Caring
audio: 10video: 8
thanks for upload

good quality for a small file, great
audio: 9video: 9
Thanks.
Appreciate Your Work. thump_up
pirate
audio: 9video: 8
Thanks,Looks Good!
audio: 9video: 7
Video quality is a little iffy, good otherwise; thanks.
audio: 10video: 10
ty for the upload...

User Opinions

hugseg9319.43K, jtrans068498, MRFUNKTASTIC5534, ammarliaqat5311, johnboyblues2928, yasiralani2551, dwr.khn1389, alivic825, ipizzel594, Razer_Ramon359 ... And 56 more
madonnannne12.16K, drentastic12
Report a bug Open chat
Sitemap