House Of Cards 2013 S04E06 WEBRip x264-TURBO[rartv]

seeders: 90
leechers: 2
updated:
Added by z0n3212.58M in TV
Torrent verified. Downloaded 63,562 times.

DownloadFast Safe Anonymous
movies, software, shows...
  • View all House of Cards episodes
  • Episode title: Chapter 45
  • Episode: S04E06
  • Air date: 04 March 2016
  • IMDb link: 1856010
  • TVmaze link: House of Cards
  • Original run: 01 February 2013 — Present
  • Summary:

    A Congressman works with his equally conniving wife to exact revenge on the people who betrayed him.

    Written by Eppo77.2K
House Of Cards 2013 S04E06 WEBRip x264-TURBO[rartv] (Size: 143.45 MB)
  House.Of.Cards.2013.S04E06.WEBRip.x264-TURBO.mp4 143.44 MB
  rarbg.com.txt 34 bytes
  house.of.cards.s04e06.webrip.x264-turbo.nfo 4.66 KB

Description


http://rarbg.to
House.Of.Cards.2013.S04E06.WEBRip.x264-TURBO[rartv]

image
Screens :

image
Mediainfo :

Video
ID : 1
Format : AVC
Format/Info : Advanced Video Codec
Format profile : [email protected]
Format settings, CABAC : Yes
Format settings, ReFrames : 8 frames
Codec ID : avc1
Codec ID/Info : Advanced Video Coding
Duration : 47mn 13s
Bit rate : 358 Kbps
Maximum bit rate : 3 137 Kbps
Width : 720 pixels
Height : 360 pixels
Display aspect ratio : 2.000
Frame rate mode : Constant
Frame rate : 23.976 (24000/1001) fps
Color space : YUV
Chroma subsampling : 4:2:0
Bit depth : 8 bits
Scan type : Progressive
Bits/(Pixel*Frame) : 0.058
Stream size : 121 MiB (84%)
Title : Chapter 45
Writing library : x264 core 148 r2665 a01e339
Encoding settings : cabac=1 / ref=8 / deblock=1:0:0 / analyse=0x3:0x133 / me=umh / subme=9 / psy=1 / psy_rd=1.00:0.00 / mixed_ref=1 / me_range=16 / chroma_me=1 / trellis=2 / 8x8dct=1 / cqm=0 / deadzone=21,11 / fast_pskip=1 / chroma_qp_offset=-2 / threads=11 / lookahead_threads=1 / sliced_threads=0 / nr=0 / decimate=1 / interlaced=0 / bluray_compat=0 / constrained_intra=0 / bframes=3 / b_pyramid=2 / b_adapt=2 / b_bias=0 / direct=3 / weightb=1 / open_gop=0 / weightp=2 / keyint=240 / keyint_min=24 / scenecut=40 / intra_refresh=0 / rc_lookahead=60 / rc=crf / mbtree=1 / crf=19.0 / qcomp=0.60 / qpmin=0 / qpmax=69 / qpstep=4 / ip_ratio=1.40 / aq=1:1.00
Encoded date : UTC 2016-03-05 07:41:54
Tagged date : UTC 2016-03-05 07:41:59

Audio
ID : 2
Format : AAC
Format/Info : Advanced Audio Codec
Format profile : HE-AAC / LC
Codec ID : 40
Duration : 47mn 13s
Bit rate mode : Variable
Bit rate : 62.7 Kbps
Maximum bit rate : 73.7 Kbps
Channel(s) : 2 channels
Channel positions : Front: L R
Sampling rate : 48.0 KHz / 24.0 KHz
Frame rate : 23.438 fps (1024 spf)
Compression mode : Lossy
Stream size : 21.2 MiB (15%)
Title : Chapter 45
Language : English
Encoded date : UTC 2016-03-05 07:41:57
Tagged date : UTC 2016-03-05 07:41:59

Text
ID : 3
Format : Timed Text
Codec ID : tx3g
Duration : 44mn 25s
Bit rate mode : Variable
Bit rate : 84 bps
Stream size : 27.3 KiB (0%)
Title : Chapter 45
Language : English
Forced : No
Encoded date : UTC 2016-03-05 07:41:58
Tagged date : UTC 2016-03-05 07:41:59

Related Torrents

torrent name size files age seed leech

Sharing Widget


Download torrent
143.45 MB
seeders:93
leechers:1
House Of Cards 2013 S04E06 WEBRip x264-TURBO[rartv]



To share this torrent use the code below and insert it into comments, status messages, forum posts or your signature.

Torrent: House Of Cards 2013 S04E06 WEBRip x264-TURBO[rartv]

Trackers

tracker name
udp://tracker.openbittorrent.com:80/announce
udp://tracker.publicbt.com:80/announce
udp://tracker.coppersurfer.tk:6969/announce
udp://9.rarbg.me:2710/announce
udp://glotorrents.pw:6969/announce
http://tracker.trackerfix.com/announce
udp://9.rarbg.to:2710/announce
udp://tracker.opentrackr.org:1337/announce
µTorrent compatible trackers list

Locations

name
KickassTorrents
Torrent hash: B86D3CA5A2FA837EE528363E96194654736DF51C

Top Comments

3
j3mlobo11
This is my first comment since I signed in at Kat. First of all, let me tell you, I'm Portuguese. I mention it because I tend to believe that some of you uploaders may be curious about how far your contribution goes to our benefit. :-)
Being in my mid 40's (an old dude!), I've witnessed - and downloaded -, lots of good stuff throughout the years (and lots of crap too), but it's not very often that I've came across such effort to upload so fast (ence the nick Turbo ?) without sacrificing quality.

Thank you very much for this great upload of one of my favourite series, and let me appologize in advance for any errors you might encounter in this message.

P.S. - Can someone enlighten me about the likes and the voting on audio and video quality? Does this voting represents any sort of prize for the uploader? Is there some sort of Uploader's ranking?

Keep up the Good Work!

Last edited by j3mlobo, 4 months ago

All Comments

audio
9/10
video
9/10
please, leave only comments related to that torrent
Sign In

audio: 9video: 9
thanks
audio: 10video: 10
thnx a lot!!!!
audio: 9video: 9
Thank you uploader.
audio: 9video: 9
thanks!
Outstanding Upload !!
audio: 10video: 10
Excellent quality, Thanks
audio: 9video: 9
Thank you! :D
Show More All

User Opinions

santicaz10.16K, Sylux8599, Pierro506608, ryan100_85051, Morpheu52486, docwire2007898, niagara69717, caossio712, mikemunyi473, virgildanut53 ... And 506 more
filmesbaixar1119, JeanAlphonse243
Report a bug Open chat
Sitemap