Advertising (remove)

CREAMPIE Brazzers - Mommy Got Boobs - Stepmom Soothes The Groom - Tara Holiday.m4v

seeders: 1
leechers: 4
updated:
Added by SuperMario12813.82K in XXX > Video
Torrent verified. Downloaded 552 times.

DownloadFast Safe Anonymous
movies, software, shows...
CREAMPIE Brazzers - Mommy Got Boobs - Stepmom Soothes The Groom - Tara Holiday.m4v (Size: 197.13 MB)
  CREAMPIE Brazzers - Mommy Got Boobs - Stepmom Soothes The Groom - Tara Holiday.m4v 197.13 MB
Advertising (remove)

Description

SCREENSHOT:


http://imgtornado.com/img-571cf28c23de9.html



General
Format : MPEG-4
Format profile : Base Media / Version 2
Codec ID : mp42
File size : 197 MiB
Duration : 29mn 40s
Overall bit rate mode : Variable

Video
ID : 1
Format : AVC
Format/Info : Advanced Video Codec
Format profile : [email protected]
Format settings, CABAC : Yes
Format settings, ReFrames : 4 frames
Codec ID : avc1
Codec ID/Info : Advanced Video Coding
Duration : 29mn 40s
Bit rate : 810 Kbps
Width : 640 pixels
Height : 360 pixels
Display aspect ratio : 16:9
Original display aspect ratio : 16:9
Frame rate mode : Variable
Frame rate : 29.970 fps
Minimum frame rate : 9.990 fps
Maximum frame rate : 29.970 fps
Color space : YUV
Chroma subsampling : 4:2:0
Bit depth : 8 bits
Scan type : Progressive
Bits/(Pixel*Frame) : 0.117
Stream size : 172 MiB (87%)
Writing library : x264 core 142 r2479 dd79a61

Audio
ID : 2
Format : AAC
Format/Info : Advanced Audio Codec
Format profile : LC
Codec ID : 40
Duration : 29mn 40s
Bit rate mode : Variable
Bit rate : 112 Kbps
Channel(s) : 2 channels
Channel positions : Front: L R
Sampling rate : 48.0 KHz
Compression mode : Lossy
Stream size : 23.8 MiB (12%)
Title : Stereo

Related Torrents

torrent name size files age seed leech

Sharing Widget


Download torrent
197.13 MB
seeders:1
leechers:4
CREAMPIE Brazzers - Mommy Got Boobs - Stepmom Soothes The Groom - Tara Holiday.m4v



To share this torrent use the code below and insert it into comments, status messages, forum posts or your signature.

Torrent: CREAMPIE Brazzers - Mommy Go...The Groom - Tara Holiday.m4v

Trackers

tracker name
udp://tracker.openbittorrent.com:80/announce
udp://tracker.publicbt.com:80/announce
udp://tracker.coppersurfer.tk:6969/announce
udp://glotorrents.pw:6969/announce
udp://tracker.leechers-paradise.org:6969/announce
udp://eddie4.nl:6969/announce
udp://thetracker.org:80/announce
udp://tracker.opentrackr.org:1337/announce
udp://tracker.sktorrent.net:6969/announce
udp://zer0day.ch:1337/announce
ĀµTorrent compatible trackers list

Locations

name
KickassTorrents
Torrent hash: 397AC90F2A45CB8BFE80671CF8E16E074867FCDB

All Comments

audio
0/10
video
0/10
please, leave only comments related to that torrent
Sign In


User Opinions

Report a bug Open chat
Sitemap