Billions S01E02 HDTV x264-BATV[rartv]

seeders: 5
leechers: 4
updated:
Added by z0n3212.58M in TV
Torrent verified. Downloaded 85,702 times.

DownloadFast Safe Anonymous
movies, software, shows...
  • View all Billions episodes
  • Episode title: Naming Rights
  • Episode: S01E02
  • Air date: 24 January 2016
  • IMDb link: 4270492
  • TVmaze link: Billions
  • Original run: 17 January 2016 — Present
  • Summary:

    Billions is a fictional drama that focuses on the collision and, at times, collusion between an aggressive U.S. attorney in New York and some of the richest hedge fund billionaires in the country.

    Written by LazyRips39.43K
Available in versions: 720p480pHDTVx264
Billions S01E02 HDTV x264-BATV[rartv] (Size: 318.17 MB)
  Billions.S01E02.HDTV.x264-BATV.mp4 318.17 MB
  rarbg.com.txt 34 bytes
  Billions.S01E02.HDTV.x264-BATV.nfo 3.77 KB

Description


http://rarbg.to
Billions.S01E02.HDTV.x264-BATV[rartv]

image
Screens :

image
Mediainfo :

Video
ID : 2
Format : AVC
Format/Info : Advanced Video Codec
Format profile : [email protected]
Format settings, CABAC : Yes
Format settings, ReFrames : 5 frames
Codec ID : avc1
Codec ID/Info : Advanced Video Coding
Duration : 54mn 1s
Source duration : 54mn 1s
Bit rate : 696 Kbps
Maximum bit rate : 3 266 Kbps
Width : 720 pixels
Height : 404 pixels
Display aspect ratio : 16:9
Frame rate mode : Constant
Frame rate : 23.976 (24000/1001) fps
Color space : YUV
Chroma subsampling : 4:2:0
Bit depth : 8 bits
Scan type : Progressive
Bits/(Pixel*Frame) : 0.100
Stream size : 269 MiB (85%)
Source stream size : 269 MiB (85%)
Writing library : x264 core 148 r2638 7599210
Encoding settings : cabac=1 / ref=5 / deblock=1:0:0 / analyse=0x3:0x113 / me=umh / subme=8 / psy=1 / psy_rd=1.00:0.00 / mixed_ref=1 / me_range=16 / chroma_me=1 / trellis=1 / 8x8dct=1 / cqm=0 / deadzone=21,11 / fast_pskip=1 / chroma_qp_offset=-2 / threads=13 / lookahead_threads=2 / sliced_threads=0 / nr=0 / decimate=1 / interlaced=0 / bluray_compat=0 / constrained_intra=0 / bframes=3 / b_pyramid=2 / b_adapt=2 / b_bias=0 / direct=3 / weightb=1 / open_gop=0 / weightp=2 / keyint=250 / keyint_min=23 / scenecut=40 / intra_refresh=0 / rc_lookahead=50 / rc=crf / mbtree=1 / crf=19.0 / qcomp=0.60 / qpmin=0 / qpmax=69 / qpstep=4 / ip_ratio=1.40 / aq=1:1.00
Encoded date : UTC 2016-01-18 06:42:11
Tagged date : UTC 2016-01-18 07:24:42
Color range : Limited
Matrix coefficients : BT.709

Audio
ID : 1
Format : AAC
Format/Info : Advanced Audio Codec
Format profile : LC
Codec ID : 40
Duration : 54mn 1s
Bit rate mode : Variable
Bit rate : 123 Kbps
Maximum bit rate : 168 Kbps
Channel(s) : 2 channels
Channel positions : Front: L R
Sampling rate : 48.0 KHz
Frame rate : 46.875 fps (1024 spf)
Compression mode : Lossy
Stream size : 47.5 MiB (15%)
Encoded date : UTC 2016-01-18 07:24:41
Tagged date : UTC 2016-01-18 07:24:42

Related Torrents

torrent name size files age seed leech

Sharing Widget


Download torrent
318.17 MB
seeders:135
leechers:7
Billions S01E02 HDTV x264-BATV[rartv]



To share this torrent use the code below and insert it into comments, status messages, forum posts or your signature.

Torrent: Billions S01E02 HDTV x264-BATV[rartv]

Trackers

tracker name
udp://tracker.openbittorrent.com:80/announce
udp://tracker.publicbt.com:80/announce
udp://tracker.coppersurfer.tk:6969/announce
udp://9.rarbg.me:2710/announce
udp://glotorrents.pw:6969/announce
http://tracker.trackerfix.com/announce
udp://9.rarbg.to:2710/announce
udp://tracker.opentrackr.org:1337/announce
µTorrent compatible trackers list

Locations

name
KickassTorrents
Torrent hash: 67B1848FBCDB099315245CA12B4816E19E4FCB4E

All Comments

audio
9/10
video
9/10
please, leave only comments related to that torrent
Sign In

audio: 9video: 9
Great Show
audio: 10video: 10
thanx :)

Good Show
audio: 9video: 9
Thank You
audio: 8video: 9
Thanks a lot! clap

••••••••••••••••••••
All you seed is loved!
audio: 9video: 9
Thank u
audio: 10video: 10
Excellent Show..!!

Thanks for the UL//
Great DL. Enjoyed the show. Will be looking out for the DVD. Thanks.
Show More All

User Opinions

Bremanesk9511, wizworx9236, electsub4070, bosslove723457, kitten76553335, sugali1984, sirknz1172, Himselfcan1022, Senval665, oevallejo642 ... And 544 more
party_saphire1056, wilywoll340, arshk77760
Report a bug Open chat
Sitemap